RockElectroniquePopFolklorique, CountryJazzFunkRapClassiqueReggaeLatineScène, ÉcranBluesNon musiqueEnfantsMilitaireAutres
» » Seals & Crofts - Get Closer
Téléchargement le album Seals & Crofts - Get Closer

Interprète:

Seals & Crofts

Titre:

Get Closer

Genre:

Rock / Pop

Taille de l'album MP3:

2876 mb

Label:

Flashback Records

Classement:

4.5

Pays:

US

Date de publication:

2007

Catalogue:

R2-290684

Téléchargement le album Seals & Crofts - Get Closer

Tracklist

1Sweet Green Fields
2Don't Fail
3Red Long Ago
4Passing Thing
5Get Closer
6Baby Blue
7Goodbye Old Buddies
8Million Dollar Horse

Versions

CategoryArtistTitle (Format)LabelCategoryCountryYear
BS 2907Seals & Crofts Get Closer ‎(LP, Album)Warner Bros. RecordsBS 2907US1976
WB 56 209Seals & Crofts Get Closer ‎(LP, Album, W/Lbl)Warner Bros. RecordsWB 56 209Germany1976
HH-6143Seals & Crofts Get Closer ‎(LP, Album, Unofficial)Holy Hawk Record Co. Ltd.HH-6143Taiwan1976
BS 2907Seals & Crofts Get Closer ‎(LP, Album)Warner Bros. RecordsBS 2907US1976
BS 2907Seals & Crofts Get Closer ‎(LP, Album, Club, RCA)Warner Bros. RecordsBS 2907US1976

Remarques

white disc tray

Codes-barres

  • Barcode: 081227996635

Entreprises

  • Phonographic Copyright (p) – Warner Bros. Records Inc.
  • Licensed From – Warner Bros. Records Inc.
  • Manufactured By – Flashback Records
  • Marketed By – Flashback Records

Video

Album

Get Closer is Seals and Crofts's eighth studio album. The title cut made the top 10 on 2 charts in early 1976, reaching 6 in Pop, and 2 in Adult Contemporary. It would be their final top 10 pop hit. Goodbye Old Buddies reached 10 on the AC chart as well. The song Get Closer features the vocals of Carolyn Willis, who had been in the group Honey Cone. Get Closer - Seals and Crofts. Лента с персональными рекомендациями и музыкальными новинками, радио, подборки на любой вкус, удобное управление своей коллекцией. Get Closer. Seals & Crofts - Get Closer 1976. To favorites 0 Download album. Listen album. Rock Pop-Rock Soft Rock. Seals & Crofts. Songs in album Seals & Crofts - Get Closer 1976. Seals & Crofts - Sweet Green Fields. Seals & Crofts - Get Closer. Seals & Crofts - Red Long Ago. Seals & Crofts - Goodbye Old Buddies. Seals & Crofts - Baby Blue. Seals & Crofts - Million Dollar Horse. Seals & Croft. Album 1976 25 Songs. Get Closer is a song by American soft rock duo Seals and Crofts, released as a single in 1976. The song is the title track of their eighth studio Closer, 2018. Get Closer, 03:58. Seals and Crofts are Jim Seals 17 October 1941 and Dash Crofts 14 August 1940, a popular soft rock duo in the early 1970s, best-known for their hit Summer Breeze. Jim Seals read more. Jim Seals and Dash Crofts were both born in Texas. They read more. Get Closer is the title track from Seals & Crofts eighth studio album, released when they were surfing the peak of their success. The duo - Jim Seals and Dash Crofts - wrote the song together. Guest star on backing vocals: Carolyn Willis. Barry from Sauquoit, NyOn June 18th 1976, Seals & Crofts performed Get Closer on the NBC-TV program 'The Midnight Special', the duo were also guest hosts. Two months earlier on April 11th it entered Billboard's Hot Top 100 chart at position 82 and on July 18th it peaked at 6 for 4 non-consecutive weeks and spent a half-year on the Top 100 26 weeks. Get Closer LP, Album, Unofficial. Holy Hawk Record Co. HH-6143. Sweet Green Fields 4:38. Seals & Crofts - Get Closer featuring Carolyn Willis 4:01. Seals & Crofts - Sweet Green Fields 4:40

Nuadazius
foobar2000 1.4.4 / Dynamic Range Meter 1.1.1
log date: 2019-09-09 21:27:25

--------------------------------------------------------------------------------
Analyzed: Seals & Crofts / Get Closer [US 1976/2007 CD]
--------------------------------------------------------------------------------

DR Peak RMS Duration Track
--------------------------------------------------------------------------------
DR12 -0.79 dB -16.70 dB 4:40 01-Sweet Green Fields
DR12 -1.37 dB -16.35 dB 3:58 02-Get Closer
DR12 -1.85 dB -16.85 dB 5:29 03-Red Long Ago
DR13 -2.12 dB -17.17 dB 2:52 04-Goodbye Old Buddies
DR13 -1.39 dB -16.42 dB 3:24 05-Baby Blue
DR14 -0.87 dB -17.92 dB 3:52 06-Million Dollar Horse
DR12 -1.78 dB -15.95 dB 3:55 07-Don't Fail
DR12 -2.82 dB -17.25 dB 6:21 08-Passing Thing
--------------------------------------------------------------------------------

Number of tracks: 8
Official DR value: DR12

Samplerate: 44100 Hz
Channels: 2
Bits per sample: 16
Bitrate: 709 kbps
Codec: ALAC
================================================================================

En rapport avec Seals & Crofts - Get Closer